L'applicazione video in realtà non mostra video, solo audio

4

Ubuntu 17.10, installazione pulita, lettore video predefinito (totem?)

Problemi con l'applicazione Video. Quando provo a riprodurre un video, ottengo audio, ma nessun video (solo una finestra nera). Sembra che il video stia giocando (posso spostarmi da un punto all'altro del video con il cursore in basso - mostra un punto temporale diverso nel video, e continua a "suonare" da lì - ma mai un'immagine reale, solo l'audio). Questo succede con qualsiasi video che tento di riprodurre. Si noti che l'app thumbnailer sta leggendo correttamente il video, in quanto genera anteprime appropriate per ciascuna di esse.

Non sembra essere un problema hardware, in quanto ho installato più versioni di Ubuntu (su diverse partizioni), e gli stessi file video vengono riprodotti senza problemi nelle versioni precedenti (16.04, 17.04).

Ho installato il pacchetto ubuntu-restricted-extras per ottenere i codec appropriati e simili - è stato installato senza problemi.

Quando lo esegue dal terminale, produce il seguente errore: % Co_de%

E il syslog restituisce:

(totem:2345): GLib-CRITICAL **: g_key_file_load_from_file: assertion 'file != NULL' failed

Qualche suggerimento?

[modifica 11/17] Oggi ho un aggiornamento a gstreamer mentre faccio gli aggiornamenti di routine, e ora alcuni file mostrano video mentre altri no. Ecco le informazioni sul flusso per una che non mostra video (informazioni sul flusso recuperate usando ffprobe):

Stream #0:0(und): Video: h264 (High) (avc1 / 0x31637661), yuv420p, 640x360 [SAR 1:1 DAR 16:9], 493 kb/s, 29.97 fps, 29.97 tbr, 11988 tbn, 59.94 tbc (default)
Metadata:
  handler_name    : VideoHandler
Stream #0:1(und): Audio: aac (LC) (mp4a / 0x6134706D), 44100 Hz, stereo, fltp, 48 kb/s (default)
Metadata:
  handler_name    : SoundHandler

[modifica 1/9/18] Uscita quando si tenta di avviare il video dalla finestra di comando:

[email protected]:/mnt/7BC9480105AD511D/Test$ totem Testing.mp4

(totem:8700): Gtk-WARNING **: Drawing a gadget with negative dimensions. Did you forget to allocate a size? (node slider owner GtkScale)

(totem:8700): Gtk-WARNING **: Drawing a gadget with negative dimensions. Did you forget to allocate a size? (node slider owner GtkScale)
[email protected]:/mnt/7BC9480105AD511D/Test$ 

Ancora nessuna uscita video. Vale la pena notare (riguardo ad altri commenti postati) che ho installato gstreamer1.0-plugins-ugly (per il supporto h264). Ecco i pacchetti gstreamer installati:

gstreamer1.0-alsa/artful,now 1.12.3-1 amd64 [installed]
gstreamer1.0-clutter-3.0/artful,now 3.0.24-1 amd64 [installed]
gstreamer1.0-fluendo-mp3/artful,now 0.10.32.debian-1 amd64 [installed,automatic]
gstreamer1.0-libav/artful,now 1.12.2-1 amd64 [installed]
gstreamer1.0-nice/artful,now 0.1.13-2 amd64 [installed,automatic]
gstreamer1.0-packagekit/artful,now 1.1.7-1 amd64 [installed]
gstreamer1.0-plugins-bad/artful,now 1.12.3-1ubuntu1 amd64 [installed]
gstreamer1.0-plugins-base/artful,now 1.12.3-1 amd64 [installed]
gstreamer1.0-plugins-base-apps/artful,now 1.12.3-1 amd64 [installed]
gstreamer1.0-plugins-good/artful,now 1.12.3-1ubuntu1 amd64 [installed]
gstreamer1.0-plugins-ugly/artful,now 1.12.3-1 amd64 [installed,automatic]
gstreamer1.0-pulseaudio/artful,now 1.12.3-1ubuntu1 amd64 [installed]
gstreamer1.0-tools/artful,now 1.12.3-1 amd64 [installed]
gstreamer1.0-vaapi/artful,now 1.12.3-1ubuntu1 amd64 [installed,automatic]
gstreamer1.0-vaapi-doc/artful,artful,now 1.12.3-1ubuntu1 all [installed]
gstreamer1.0-x/artful,now 1.12.3-1 amd64 [installed]

Modifica aggiuntiva 1/9/18: Grazie a Roberto Lineros. Rimozione gstreamer1.0-vaapi sembra aver risolto questo per me. I video sono ora in riproduzione, compresi i video h264 (formati mp4).

    
posta Tracy 02.11.2017 - 04:25

3 risposte

1

Sto usando Ubuntu 17.10 e confermo il problema.

Il problema può essere risolto rimuovendo gstreamer1.0-vaapi

Nel mio caso, ho usato

sudo apt purge gstreamer1.0-vaapi

dopo, totem dovrebbe visualizzare il video come al solito.

La soluzione che ho trovato qui: link

    
risposta data Roberto A. Lineros 08.01.2018 - 15:13
0

Sembra che manchi gstreamer1.0-plugins-brutto che contiene l'h264 codec per 17.10. È disponibile nel repository universe. in caso contrario, viene visualizzato essere interessato da questo bug

    
risposta data Elder Geek 08.01.2018 - 16:32
-1

Se non è necessario utilizzare il lettore video fornito da Ubuntu stesso. È meglio usare il lettore VLC, che è fantastico.

sudo apt update
sudo apt install vlc
    
risposta data Moonak 02.11.2017 - 05:46

Leggi altre domande sui tag